小米电视 +关注 已有9212人关注 +发表新主题
数码海豚

神仙级手机控

  1. 8340 积分
  2. 4403 经验
  3. 1950 贡献值

Ta的主页 发消息
签到
连续0天
0人
签到看排名
扫码下载App
一键签到 升级加速
回复

【4K片源下载】第六波-圣托里尼岛

发表在 晒机评测 2016-03-08 14:19:21  来自PC 复制链接 手机看帖扫一扫!手机看帖更爽 1200 39112

楼主强烈推荐,一部超好的4K风景大片。时长超过20分钟,完完整整的介绍了一下圣托里尼岛。

General 
Unique ID : 197744829476563694837989438162672343508 (0x94C444D2F041F5C3A1712C59C800D9D4)
Complete name : My Romantic cities - Santorini (4K 2160p UHDTV HEVC AC3 En) Lotos2007.mkv 
Format : Matroska 
Format version : Version 4/Version 2 
File size : 3.83GiB 
Duration : 22min 15s 
Overall bit rate : 24.7 Mbps 
Encoded date : UTC 2016-01-08 19:29:38
Writing application : mkvmerge v8.2.0 ('World of Adventure') 32bit 
Writing library : libebml v1.3.1 + libmatroska v1.4.2 

Video
ID : 1 
Format : AVC 
Format/Info : Advanced Video Codec 
Format profile : High@L5.1 @Main
Codec ID : V_MPEG4/ISO/AVC 
Duration : 22min 15s
Bit rate : 24.3 Mbps
Width : 3840 pixels 
Height : 2160 pixels 
Display aspect ratio : 16:9
Frame rate mode : Constant 
Frame rate : 50.000 fps 
Color space : YUV 
Chroma subsampling : 4:2:0 
Bit depth : 10 bits 
Bits/(Pixel*Frame) : 0.058
Stream size : 3.77 GiB (98%)
Writing library : x264 1.7:[Mac OS X][clang 6.1.0][64 bit] 16bpp
Encoding settings : wpp/ctu=64/min-cu-size=8/max-tu-size=32/tu-inter-depth=1/me=1/psy=1/ subme=2/merange=57/no-rect/no-amp/max-merge=2/temporal-mvp/no-early-skip/ rdpenalty=0/no-tskip/no-tskip-fast/strong-intra-smoot 
Default : Yes 
Forced : No 

Audio #1 
Format : AC-3 
Format/Info : Audio Coding 3
Mode extension : CM (complete main)
Format settings, Endianness : Big 
Codec ID : A_AC3
Duration : 22min 15s
Bit rate mode : Constant  
Bit rate : 448 Kbps  
Channel(s) : 2 channels 
Channel positions : Front: L R
Sampling rate : 48.0 KHz 
Frame rate : 31.250 fps (1536 spf) 
Compression mode : Lossy 
Stream size : 71.3 MiB (2%) 
Language : English
Default : Yes 
Forced : No


以下内容被隐藏,回复本帖后可见

扫描二维码,手机查看本帖
发表

点评

  • Mi_111440556: 小米5米粉讨论群号 187577229 F码资格买卖交易群 只为大家提供个安全的平台 2016-03-18 20:49:18

已有2人评分 经验 理由
刁蛮妖灵 +1 小米5米粉群 294453126 F码资格诚信买卖交易群 群内不定时发红包
袜袜兒 +1 小米5超级1000人群 275982048 交流群 为交易提供一切保障

总评分: 经验 +2

最新评论 | 正序排列
326 条评论被过滤    只看楼主|楼层直达:
回复