小米电视 +关注 已有15847人关注 +发表新主题
数码海豚

内测粉丝组

  1. 11863 积分
  2. 6379 经验
  3. 2710 贡献值

Ta的主页 发消息
签到
连续0天
0人
签到看排名
扫码下载App
一键签到 升级加速
回复

【4K片源下载】第八波-大溪地(法属波利尼西亚)

关闭 发表在 晒机评测 2016-04-06 15:34:46  来自PC 复制链接 手机看帖扫一扫!手机看帖更爽 664 33742

以下内容被隐藏,回复本帖后可见

 

其他4K下载资源 : 

 http://bbs.xiaomi.cn/t-12455708 

 http://bbs.xiaomi.cn/t-11546960 

 http://bbs.xiaomi.cn/t-11543997 

 http://bbs.xiaomi.cn/t-11542643 

 http://bbs.xiaomi.cn/t-12648405 

 http://bbs.xiaomi.cn/t-12648606

General 
Unique ID : 207418784571361137898906385349530674915 (0x9C0B67A28246FDEB9C64E65B25CCE6E3)
Complete name : French Polynesia - The Explorers Network 2014 (4K 2160p UHDTV HEVC AC3 En) Lotos2007.mkv
Format : Matroska
Format version : Version 4 / Version 2 
File size : 1.82 GiB 
Duration : 8mn 59s
Overall bit rate : 29.0 Mbps 
Encoded date : UTC 2016-03-30 15:34:03
Writing application : mkvmerge v8.3.0 ('Over the Horizon') 32bit  
Writing library : libebml v1.3.1 + libmatroska v1.4.2

Video
ID : 1 
Format : HEVC 
Format/Info : High Efficiency Video Coding 
Format profile : Main 10@L5.1@Main
Codec ID : V_MPEGH/ISO/HEVC
Duration : 8mn 59s
Bit rate : 28.6 Mbps
Width : 3840 pixels 
Height : 2160 pixels 
Display aspect ratio : 16:9
Frame rate mode : Constant 
Frame rate : 50.000 fps 
Color space : YUV 
Chroma subsampling : 4:2:0 
Bit depth : 10 bits 
Bits/(Pixel*Frame) : 0.069
Stream size : 1.79 GiB (98%)
Writing library : ATEME Titan File 3.6.2 (4.6.1.9)
Default : Yes 
Forced : No 
Color range : Limited
Color primaries : BT.709
Transfer characteristics : BT.709
Matrix coefficients : BT.709

Audio 
ID : 2 
Format : AC-3 
Format/Info : Audio Coding 3
Mode extension : CM (complete main)
Format settings, Endianness : Big 
Codec ID : A_AC3
Duration : 8mn 59s 
Bit rate mode : Constant  
Bit rate : 448 Kbps  
Channel(s) : 2 channels 
Channel positions : Front: L R 
Sampling rate : 48.0 KHz 
Frame rate : 31.250 fps (1536 spf) 
Compression mode : Lossy 
Delay relative to video : 312ms
Stream size : 28.8 MiB (2%) 
Language : English
Default : Yes 
Forced : No


以下内容被隐藏,回复本帖后可见

扫描二维码,手机查看本帖
发表
最新评论 | 正序排列
只看楼主|楼层直达:
回复